Home HOLLYWOOD Misconduct 2016 720p BluRay Dual Audio Eng-Hindi DD 5.1 Hollywood Movie

Misconduct 2016 720p BluRay Dual Audio Eng-Hindi DD 5.1 Hollywood Movie

752
0
SHARE

MISCONDUCT

ACTION THRILLER DRAMA
Details:
An ambitious lawyer (Josh Duhamel) finds himself caught in a power struggle between a corrupt pharmaceutical executive (Anthony Hopkins) and his firm’s senior partner (Al Pacino). When the case takes a deadly turn, he must race to uncover the truth before he loses everything.

General

Format                                   : Matroska
Format version                           : Version 4 / Version 2
File size                                : 1.04 GiB
Duration                                 : 1 h 45 min
Overall bit rate                         : 1 408 kb/s

Video
ID                                       : 1
Format                                   : AVC
Format/Info                              : Advanced Video Codec
Format profile                           : High@L4.1
Duration                                 : 1 h 45 min
Bit rate                                 : 900 kb/s
Width                                    : 1 280 pixels
Height                                   : 534 pixels
Display aspect ratio                     : 2.40:1
Original display aspect ratio            : 2.40:1
Frame rate mode                          : Constant
Frame rate                               : 23.976 (24000/1001) FPS
Color space                              : YUV
Chroma subsampling                       : 4:2:0
Bit depth                                : 8 bits
Scan type                                : Progressive
Bits/(Pixel*Frame)                       : 0.055
Stream size                              : 682 MiB (64%)
Default                                  : Yes
Forced                                   : No

Audio #1
ID                                       : 2
Format                                   : AAC
Format/Info                              : Advanced Audio Codec
Format profile                           : LC
Codec ID                                 : A_AAC-2
Duration                                 : 1 h 45 min
Bit rate                                 : 122 kb/s
Channel(s)                               : 2 channels
Channel positions                        : Front: L R
Sampling rate                            : 48.0 kHz
Frame rate                               : 46.875 FPS (1024 SPF)
Compression mode                         : Lossy
Delay relative to video                  : -43 ms
Stream size                              : 92.5 MiB (9%)
Default                                  : No
Forced                                   : No

Audio #2
ID                                       : 3
Format                                   : AC-3
Format/Info                              : Audio Coding 3
Codec ID                                 : A_AC3
Duration                                 : 1 h 45 min
Bit rate mode                            : Constant
Bit rate                                 : 384 kb/s
Channel(s)                               : 6 channels
Channel positions                        : Front: L C R, Side: L R, LFE
Sampling rate                            : 48.0 kHz
Frame rate                               : 31.250 FPS (1536 SPF)
Bit depth                                : 16 bits
Compression mode                         : Lossy
Delay relative to video                  : 8 s 707 ms
Stream size                              : 290 MiB (27%)
Language                                 : Hindi
Service kind                             : Complete Main
Default                                  : Yes
Forced                                   : No

Screenshots:

DOWNLOAD

LEAVE A REPLY

Please enter your comment!
Please enter your name here