Home MOVIES Tarzan The He Man 2017 Dual Audio Hindi

Tarzan The He Man 2017 Dual Audio Hindi

335
0
SHARE

Title:

Tarzan The He man 2017

Details:

Kavya and her friends plan to celebrate their New year in Andaman. There they behave too notorious. While escaping from police for their deeds, Kavya hits a tribal named Jara, with her car. Jara is heavily injured in the head. Kavya decides to save him by giving better treatment, so she brings him to Chennai. At first, there were too many misunderstands between them as Jara doesn’t know her language. After some time, she starts to train him and a beautiful bond starts between them in spite of not knowing their languages. Vicky, Kavya’s friend tries to force on her, who is later saved by Vaasi (Jara). Vicky’s father is a billionaire who wants to punish Jara now. Kavya tries to help Jara, but he is taken away to Andaman. Kavya too reaches Andaman. Rajashekar too goes to Andaman in search of Kavya. But Kavya says that she wants to stay with the tribe as she loves Jara and his way of living rather than city life. Jara and Kavya fall in love and Rajashekar leaves them without punishing.

General

Format                                 : Matroska
Format version                    : Version 4 / Version 2
File size                                : 898 MiB
Duration                               : 2 h 17 min
Overall bit rate                     : 913 kb/s
Movie name                          : www.movcr.com
Encoded date                        : UTC 2018-03-30 08:34:17
Writing application               : mkvmerge v9.5.0 (‘QuietFire’) 64bit
Writing library                    : libebml v1.3.4 + libmatroska v1.4.5

Video
ID                                       : 1
Format                                   : AVC
Format/Info                              : Advanced Video Codec
Format profile                           : High@L3.1
Format settings                          : CABAC / 4 Ref Frames
Format settings, CABAC                   : Yes
Format settings, RefFrames               : 4 frames
Codec ID                                 : V_MPEG4/ISO/AVC
Duration                                 : 2 h 17 min
Bit rate                                 : 367 kb/s
Width                                    : 1 280 pixels
Height                                   : 544 pixels
Display aspect ratio                     : 2.35:1
Frame rate mode                          : Constant
Frame rate                               : 24.000 FPS
Color space                              : YUV
Chroma subsampling                       : 4:2:0
Bit depth                                : 8 bits
Scan type                                : Progressive
Bits/(Pixel*Frame)                       : 0.022
Stream size                              : 361 MiB (40%)
Title                                    : www.movcr.com
Writing library                          : x264 core 155 r2901 7d0ff22
Encoding settings                        : cabac=1 / ref=3 / deblock=1:0:0 / analyse=0x3:0x113 / me=hex / subme=7 / psy=1 / psy_rd=1.00:0.00 / mixed_ref=1 / me_range=16 / chroma_me=1 / trellis=1 / 8x8dct=1 / cqm=0 / deadzone=21,11 / fast_pskip=1 / chroma_qp_offset=-2 / threads=12 / lookahead_threads=2 / sliced_threads=0 / nr=0 / decimate=1 / interlaced=0 / bluray_compat=0 / constrained_intra=0 / bframes=3 / b_pyramid=2 / b_adapt=1 / b_bias=0 / direct=1 / weightb=1 / open_gop=0 / weightp=2 / keyint=240 / keyint_min=24 / scenecut=40 / intra_refresh=0 / rc_lookahead=40 / rc=2pass / mbtree=1 / bitrate=367 / ratetol=1.0 / qcomp=0.60 / qpmin=0 / qpmax=69 / qpstep=4 / cplxblur=20.0 / qblur=0.5 / ip_ratio=1.40 / aq=1:1.00
Default                                  : Yes
Forced                                   : No

Audio #1
ID                                       : 2
Format                                   : AC-3
Format/Info                              : Audio Coding 3
Codec ID                                 : A_AC3
Duration                                 : 2 h 17 min
Bit rate mode                            : Constant
Bit rate                                 : 384 kb/s
Channel(s)                               : 2 channels
Channel positions                        : Front: L R
Sampling rate                            : 44.1 kHz
Frame rate                               : 28.711 FPS (1536 SPF)
Bit depth                                : 16 bits
Compression mode                         : Lossy
Stream size                              : 377 MiB (42%)
Title                                    : www.movcr.com
Language                                 : Hindi
Service kind                             : Complete Main
Default                                  : Yes
Forced                                   : No

Audio #2
ID                                       : 3
Format                                   : AC-3
Format/Info                              : Audio Coding 3
Codec ID                                 : A_AC3
Duration                                 : 2 h 17 min
Bit rate mode                            : Constant
Bit rate                                 : 160 kb/s
Channel(s)                               : 6 channels
Channel positions                        : Front: L C R, Side: L R, LFE
Sampling rate                            : 44.1 kHz
Frame rate                               : 28.711 FPS (1536 SPF)
Bit depth                                : 16 bits
Compression mode                         : Lossy
Stream size                              : 157 MiB (18%)
Title                                    : www.movcr.com
Language                                 : Tamil
Service kind                             : Complete Main
Default                                  : No
Forced                                   : No

Text
ID                                       : 4
Format                                   : UTF-8
Codec ID                                 : S_TEXT/UTF8
Codec ID/Info                            : UTF-8 Plain Text
Duration                                 : 2 h 12 min
Bit rate                                 : 41 b/s
Count of elements                        : 1097
Stream size                              : 40.6 KiB (0%)
Title                                    : www.movcr.com
Language                               : English
Default                                  : No
Forced                                   : No

Screenshots:

DOWNLOAD

LEAVE A REPLY

Please enter your comment!
Please enter your name here